stat4u

Skocz do zawartości


Zdjęcie

Wichry namiętności / Legends of the Fall (1994)

wichry namietnosci legends fall 1994

  • Proszę się zalogować aby odpowiedzieć
Brak odpowiedzi na ten temat

#1
OFFLINE   Motyleczek

Motyleczek

    ViperSAT Moderatorka

  • Moderator
  • ID:
    136615

  • Postów:
    5976

  • Dołączył:
    12-05-2011



  • Płeć:Kobieta

  • Kraj:
Reputacja: 10
Dobra
Wichry namiętności / Legends of the Fall (1994) 1080p.BluRay.x264.DTS-HD.MA.5.1.AC3-LEON 345 | Lektor i Napisy PL
 
cd0dd306be6a4c9b5ea7579f611fa74a.jpg
 
gatunek: Melodramat
produkcja: USA
premiera: 5 maja 1995 (Polska) 16 grudnia 1994 (świat)
reżyseria: Edward Zwick
scenariusz: William D. Wittliff, Susan Shilliday
 
Pułkownik William Ludlow (Anthony Hopkins) żyje na rancho na zapomnianej przez ludzi ziemi u podnóża Gór Montana, gdzie wychowuje swych trzech synów z dala od okrutnych i krwawych wojen z Indianami. Alfred (Aidan Quinn) najstarszy z nich, jest odpowiedzialny i pełen dystansu; Samuel (Henry Thomas) ukochany beniaminek jest wrażliwym idealistą, a średni - Tristan (Brad Pitt) to duch niespokojny i nieposkromiony. W tym męskim świecie pojawia się Susannah Finncannon (Julia Ormond), kobieta piękna i inteligentna, która rozpalając w braciach pożądanie i ducha rywalizacji, zmienia na zawsze ich życiowe losy. 
 
07b82a312582746.jpg 
 
45f452312582758.jpg 
 
587458312582773.jpg 
 
Wichry namiętności / Legends of the Fall (1994) 1080p.BluRay.x264.DTS-HD.MA.5.1.AC3-LEON 345 | Lektor i Napisy PL
 
Spoiler
Format version : Version 2
File size : 14.9 GiB
Duration : 2h 12mn
Overall bit rate mode : Variable
Overall bit rate : 16.0 Mbps
Encoded date : UTC 2014-03-03 22:29:29
Writing application : mkvmerge v5.7.0 ('The Whirlwind') built on Jul 8 2012 20:08:51
Writing library : libebml v1.2.3 + libmatroska v1.3.0
 
Video
ID : 1
Format : AVC
Format/Info : Advanced Video Codec
Format profile : High@L4.1
Format settings, CABAC : Yes
Format settings, ReFrames : 2 frames
Codec ID : V_MPEG4/ISO/AVC
Duration : 2h 12mn
Bit rate mode : Variable
Bit rate : 10.8 Mbps
Maximum bit rate : 35.0 Mbps
Width : 1 920 pixels
Height : 1 080 pixels
Display aspect ratio : 16:9
Frame rate mode : Constant
Frame rate : 23.976 fps
Color space : YUV
Chroma subsampling : 4:2:0
Bit depth : 8 bits
Scan type : Progressive
Title : Rip by Leon 345 encoding 2 pass
Bits/(Pixel*Frame) : 0.217
Stream size : 10.0 GiB (98%)
Default : Yes
Forced : No
 
Audio #1
ID : 2
Format : AC-3
Format/Info : Audio Coding 3
Mode extension : CM (complete main)
Format settings, Endianness : Big
Codec ID : A_AC3
Duration : 2h 12mn
Bit rate mode : Constant
Bit rate : 640 Kbps
Channel(s) : 6 channels
Channel positions : Front: L C R, Side: L R, LFE
Sampling rate : 48.0 KHz
Bit depth : 16 bits
Compression mode : Lossy
Stream size : 608 MiB (4%)
Title : AC3 5.1 Lektor PL
Language : Polish
Default : Yes
Forced : Yes
 
Audio #2
ID : 3
Format : AC-3
Format/Info : Audio Coding 3
Mode extension : CM (complete main)
Format settings, Endianness : Big
Codec ID : A_AC3
Duration : 2h 12mn
Bit rate mode : Constant
Bit rate : 640 Kbps
Channel(s) : 6 channels
Channel positions : Front: L C R, Side: L R, LFE
Sampling rate : 48.0 KHz
Bit depth : 16 bits
Compression mode : Lossy
Stream size : 608 MiB (4%)
Title : AC3 5.1
Language : English
Default : No
Forced : No
 
Audio #3
ID : 4
Format : DTS
Format/Info : Digital Theater Systems
Format profile : MA / Core
Mode : 16
Format settings, Endianness : Big
Codec ID : A_DTS
Duration : 2h 12mn
Bit rate mode : Variable
Bit rate : 3724 / 1 509 Kbps
Channel(s) : 6 channels
Channel positions : Front: L C R, Side: L R, LFE
Sampling rate : 48.0 KHz
Bit depth : 24 bits
Compression mode : Lossless / Lossy
Title : DTS-HD MA 5.1 Orginal
Language : English
Default : No
Forced : No
 
Text #1
ID : 5
Format : PGS
Muxing mode : zlib
Codec ID : S_HDMV/PGS
Codec ID/Info : The same subtitle format used on BDs/HD-DVDs
Language : Polish
Default : No
Forced : No
 
Text #2
ID : 6
Format : PGS
Muxing mode : zlib
Codec ID : S_HDMV/PGS
Codec ID/Info : The same subtitle format used on BDs/HD-DVDs
Language : English
Default : No
Forced : No
 
Text #3
ID : 7
Format : UTF-8
Codec ID : S_TEXT/UTF8
Codec ID/Info : UTF-8 Plain Text
Default : Yes
Forced : Yes
 
Source [thx]:
A/V-Legends of the Fall (1994) Blu-ray CEE 1080p AVC DD5.1
 

Please Login or Register to see this Hidden Content

 


  • 0





Także otagowane jednym lub więcej z tych słów kluczowych: wichry, namietnosci, legends, fall, 1994

Pliki hostujemy na Rapidshare, Speedyshare, Sendspace, Hotfile, Depositfiles, Bitshare i innych. Na forum ViperSat nie wolno uploadować nielegalnych plików jak seriale, cracki, NOCD czy keygeny.