stat4u

Skocz do zawartości


Zdjęcie
- - - - -

The Music Of Bob Dylan Arranged For Fingerstyle Guitar


  • Proszę się zalogować aby odpowiedzieć
Brak odpowiedzi na ten temat

#1
ONLINE   mitsumi

mitsumi

    ViperSAT Member

  • Elite Member
  • ID:
    237240

  • Postów:
    18961

  • Dołączył:
    28-11-2018



  • Numer GG:67890045
  • Płeć:Kobieta

  • Kraj:
Reputacja: 0
Neutralna
1906112002080113.jpg

The Music Of Bob Dylan Arranged For Fingerstyle Guitar
DVD5 | English | VIDEO_TS + PDF | 720 x 480 | MPEG2 ~5468 kbps | 29.970 fps
AC-3 192 Kbps 48.0 KHz | 2 channels | 90 minutes | 3.59 GB
Genre: eLearning Video / Guitar lesson, Singing, Voice
Learn how to play and sing nine classic Bob Dylan tunes from start to finish. This lesson will teach you how to fingerpick backup arrangements while singing, how to play instrumental solos and how to begin and end each song.

While studying Fred Sokolow's arrangements you will also learn a lot about fingerpicking: backup patterns, soloing ideas and various chord positions.
Each song is played at regular speed and then slowed down with a split-screen that gives you a close-up look at the picking as well as chording hand. All the arrangements are clearly written out in tab and music in the accompanying booklet along with lead sheets and lyrics.

Titles include:
Lay Lady Lay,
My Back Pages,
I Shall Be Released,
Just Like Tom Thumb's Blues,
Blowin' In The Wind,
Don't Think Twice,
Mr. Tambourine Man,
Too Much Of Nothing &
The Times They Are A Changing

90 minutes * Level 2 * Detailed tab/music PDF file on the DVD

Review: Here is a well made instructive DVD teaching solo guitar players how to play some of the popular songs of Bob Dylan. It is not a note-by-note replica of how Dylan played (I don't know that Dylan ever played it the same way twice), which seems to bother some reviewers of Sokolow's other DVDs. Using step by step teaching, excellent camera work, and an easy personal style, the instructor brings the guitarist to the point of playing Dylan, in a solo manner, in a very teachable and enjoyable manner. ***** Star for instruction, song choice, and camera work. Accompanying booklet is nice. - Amazon Customer Review

General
Complete name : VTS_02_2.VOB
Format : MPEG-PS
File size : 1 024 MiB
Duration : 24mn 47s
Overall bit rate mode : Variable
Overall bit rate : 5 775 Kbps

Video
ID : 224 (0xE0)
Format : MPEG Video
Format version : Version 2
Format profile : [email protected]
Format settings, BVOP : Yes
Format settings, Matrix : Custom
Format settings, GOP : M=3, N=15
Duration : 24mn 47s
Bit rate mode : Variable
Bit rate : 5 468 Kbps
Maximum bit rate : 9 000 Kbps
Width : 720 pixels
Height : 480 pixels
Display aspect ratio : 4:3
Frame rate : 29.970 fps
Standard : NTSC
Color space : YUV
Chroma subsampling : 4:2:0
Bit depth : 8 bits
Scan type : Interlaced
Scan order : Top Field First
Compression mode : Lossy
Bits/(Pixel*Frame) : 0.528
Time code of first frame : 01:25:15:10
Time code source : Group of pictures header
Stream size : 969 MiB (95%)

Audio
ID : 189 (0xBD)-128 (0x80)
Format : AC-3
Format/Info : Audio Coding 3
Mode extension : CM (complete main)
Format settings, Endianness : Big
Muxing mode : DVD-Video
Duration : 24mn 47s
Bit rate mode : Constant
Bit rate : 192 Kbps
Channel(s) : 2 channels
Channel positions : Front: L R
Sampling rate : 48.0 KHz
Bit depth : 16 bits
Compression mode : Lossy
Delay relative to video : -436ms
Stream size : 34.0 MiB (3%)

Menu

Screenshots

1906112002100112.jpg

1906112002120100.jpg

1906112002130117.jpg


Download link:

Please Login or Register to see this Hidden Content


Links are Interchangeable - No Password - Single Extraction
  • 0




Pliki hostujemy na Rapidshare, Speedyshare, Sendspace, Hotfile, Depositfiles, Bitshare i innych. Na forum ViperSat nie wolno uploadować nielegalnych plików jak seriale, cracki, NOCD czy keygeny.