stat4u

Skocz do zawartości


Zdjęcie
- - - - -

Jonathan Levi - Become a Speed Demon


  • Proszę się zalogować aby odpowiedzieć
Brak odpowiedzi na ten temat

#1
OFFLINE   mitsumi

mitsumi

    ViperSAT Member

  • Elite Member
  • ID:
    237240

  • Postów:
    26757

  • Dołączył:
    28-11-2018



  • Numer GG:67890045
  • Płeć:Kobieta

  • Kraj:
Reputacja: 0
Neutralna
ebb78a066113e54110e6df5cf3d6beea.jpg

Jonathan Levi - Become a Speed Demon
WEBRip | English | MP4 + PDF Guides | 960 x 540 | AVC ~1266 Kbps | 25 fps
AAC | 128 Kbps | 44.1 KHz | 2 channels | ~6 hours | 4.59 GB
Genre: Video Tutorial / Self Improvement
Learning Strategies, Memory Skills and Practices. Ensure Cognitive Dominance And Take Control Of Your Life

It's a common myth that everyone has the same 24 hours in a day.

1. That's not true (more on that in a bit)

2. If everyone had the same 24 hours, what do successful people do so differently?

Here's a hint:

It has nothing to do with "time management"...

... and it has surprisingly little to do with productivity hacks.

Rather, the world's most effective people have mastered something that very few people talk about.

It's called "attention management."

And if you're the kind of person who could use an extra 1-3 hours in your day, you're going to want to check this out.

If you're like most of us, you simply don't have enough time in the day to do all of the things you need to do - much less those that you want to do.

The Become A Speed Demon MasterClass will teach you the most cutting-edge tips and tricks for productivity, automation, and efficiency, so that you can do more work in less time and have more time for the things that matter in life.
Just imagine what you could accomplish if...

You knew the best ways to fight procrastination and maintain laser focus on tasks that matter You had systems to help you effectively prioritize your tasks to transform your life You didn't have to sort through dozens of productivity "hacks" and hope that they will work You knew the best ways to optimize chores, your fitness, and your sleep

The sky would be the limit - and the Speed Demon MasterClass will show you how.

Gain Access To The Systems Behind
The World's Most Effective People

The Speed Demon MasterClass takes you behind the scenes of the productivity system that runs my life today.

The system is the result of YEARS of trial and error and rigorous study of the world's most productive people.

And now it's all yours, distilled into the exact step-by-step process you need to transform your productivity.

[i]Value: $349
More Info:

Please Login or Register to see this Hidden Content


General
Complete name : 03-Lecture 19 Automating meeting scheduling.MP4
Format : MPEG-4
Format profile : Base Media
Codec ID : isom (isom/iso2/avc1/mp41)
File size : 21.4 MiB
Duration : 2 min 8 s
Overall bit rate mode : Variable
Overall bit rate : 1 398 kb/s
Season : 0
Movie name : 03-Lecture 19 Automating meeting scheduling

Xtra : WM/Category

Video
ID : 1
Format : AVC
Format/Info : Advanced Video Codec
Format profile : [email protected]
Format settings : 1 Ref Frames
Format settings, CABAC : No
Format settings, RefFrames : 1 frame
Format settings, GOP : M=1, N=12
Codec ID : avc1
Codec ID/Info : Advanced Video Coding
Duration : 2 min 8 s
Bit rate : 1 266 kb/s
Width : 960 pixels
Height : 540 pixels
Display aspect ratio : 16:9
Frame rate mode : Constant
Frame rate : 25.000 FPS
Color space : YUV
Chroma subsampling : 4:2:0
Bit depth : 8 bits
Scan type : Progressive
Bits/(Pixel*Frame) : 0.098
Stream size : 19.4 MiB (91%)
Encoded date : UTC 2018-05-25 12:52:22
Tagged date : UTC 2018-05-25 12:52:22
Menus : 3

Audio
ID : 2
Format : AAC
Format/Info : Advanced Audio Codec
Format profile : LC
Codec ID : mp4a-40-2
Duration : 2 min 8 s
Bit rate mode : Variable
Bit rate : 128 kb/s
Maximum bit rate : 174 kb/s
Channel(s) : 2 channels
Channel positions : Front: L R
Sampling rate : 44.1 kHz
Frame rate : 43.066 FPS (1024 SPF)
Compression mode : Lossy
Stream size : 1.96 MiB (9%)
Language : English
Encoded date : UTC 2018-05-25 12:52:22
Tagged date : UTC 2018-05-25 12:52:22

Menu
ID : 3
Codec ID : text
Duration : 2 min 8 s
Encoded date : UTC 2018-05-29 08:12:37
Tagged date : UTC 2018-05-29 08:12:37
Menu For : 1
00:00:00.000 : Chapter 1

Screenshots

e63a4b4ea48651ef4e7ed41570edf15b.jpg

4a10690029d750b3faa67b116e0f44af.jpg

6577e9496a307f90a4aba4adddf3cabd.jpg


Download link:

Please Login or Register to see this Hidden Content


Links are Interchangeable - No Password - Single Extraction
  • 0




Pliki hostujemy na Rapidshare, Speedyshare, Sendspace, Hotfile, Depositfiles, Bitshare i innych. Na forum ViperSat nie wolno uploadować nielegalnych plików jak seriale, cracki, NOCD czy keygeny.